Login: Password:  Do not remember me




Tags






Video TutorialsLearn Full-Stack Vue, .NET Core, PostgreSQL Web Development (7/2020)



Learn Full-Stack Vue, .NET Core, PostgreSQL Web  Development (7/2020)


Learn Full-Stack Vue, .NET Core, PostgreSQL Web Development
WEBRip | English | MP4 | 1280 x 720 | AVC ~808 kbps | 30 fps
AAC | 128 Kbps | 48.0 KHz | 2 channels | Subs: English (.srt) | ~12 hours | 5.24 GB
Genre: eLearning Video / Web Development, Full Stack
Code-along to build a full-featured management dashboard from scratch


What you'll learn
Full-stack web application development skills
.NET Core 3.0
Vue JS
PostgreSQL
CSS (SCSS) + HTML
Cypress Automated Testing
Unit Testing Vue with Jest
Unit Testing C# with xUnit
Refactoring

Requirements
Beginner to intermediate familiarity with web development
An interest in hands-on learning by building software

Description
In this course, we'll build a feature-complete web application for a coffee roaster called Solar Coffee. We'll build a management dashboard consisting of a PDF invoice generator, dynamic graphs, and an order fulfillment feature.

As part of this course, you'll learn fundamental full-stack development skills, including:

REST API development with .NET Core

Front-End development with Vue.js with TypeScript

Using SQL with a PostgreSQL database

Testing API endpoints with Postman

Unit testing with Jest, xUnit

End-to-end testing with Cypress

Finding and fixing bugs

Web application architecture

Who this course is for:
Beginner to intermediate level web developers curious about improving full-stack skills
Hands-on learners who enjoy learning by building applications

General
Complete name : 4. Creating Modals Receiving Inventory.mp4
Format : MPEG-4
Format profile : Base Media
Codec ID : isom (isom/iso2/avc1/mp41)
File size : 161 MiB
Duration : 23 min 45 s
Overall bit rate : 945 kb/s
Writing application : Lavf58.12.100
IsTruncated : Yes

Video
ID : 1
Format : AVC
Format/Info : Advanced Video Codec
Format profile : [email protected]
Format settings : CABAC / 4 Ref Frames
Format settings, CABAC : Yes
Format settings, RefFrames : 4 frames
Codec ID : avc1
Codec ID/Info : Advanced Video Coding
Duration : 23 min 45 s
Bit rate : 808 kb/s
Nominal bit rate : 3 000 kb/s
Width : 1 280 pixels
Height : 720 pixels
Display aspect ratio : 16:9
Frame rate mode : Constant
Frame rate : 30.000 FPS
Color space : YUV
Chroma subsampling : 4:2:0
Bit depth : 8 bits
Scan type : Progressive
Bits/(Pixel*Frame) : 0.029
Stream size : 137 MiB (86%)
Writing library : x264 core 148
Encoding settings : cabac=1 / ref=3 / deblock=1:0:0 / analyse=0x1:0x111 / me=umh / subme=6 / psy=1 / psy_rd=1.00:0.00 / mixed_ref=1 / me_range=16 / chroma_me=1 / trellis=1 / 8x8dct=0 / cqm=0 / deadzone=21,11 / fast_pskip=1 / chroma_qp_offset=-2 / threads=22 / lookahead_threads=3 / sliced_threads=0 / nr=0 / decimate=1 / interlaced=0 / bluray_compat=0 / constrained_intra=0 / bframes=3 / b_pyramid=2 / b_adapt=1 / b_bias=0 / direct=1 / weightb=1 / open_gop=0 / weightp=2 / keyint=60 / keyint_min=6 / scenecut=0 / intra_refresh=0 / rc_lookahead=60 / rc=cbr / mbtree=1 / bitrate=3000 / ratetol=1.0 / qcomp=0.60 / qpmin=0 / qpmax=69 / qpstep=4 / vbv_maxrate=3000 / vbv_bufsize=6000 / nal_hrd=none / filler=0 / ip_ratio=1.40 / aq=1:1.00

Audio
ID : 2
Format : AAC
Format/Info : Advanced Audio Codec
Format profile : LC
Codec ID : mp4a-40-2
Duration : 23 min 45 s
Bit rate mode : Constant
Bit rate : 128 kb/s
Channel(s) : 2 channels
Channel positions : Front: L R
Sampling rate : 48.0 kHz
Frame rate : 46.875 FPS (1024 SPF)
Compression mode : Lossy
Stream size : 21.8 MiB (14%)
Default : Yes
Alternate group : 1

Buy Premium Account From My Download Links And Get Resumable Support & SUPER Fastest speed

rapidgator_net:
https://rapidgator.net/file/dddaa6f432545406948506782f713f5b/swyjo.Learn.FullStack.Vue..NET.Core.PostgreSQL.Web.Development.72020.part1.rar.html
https://rapidgator.net/file/6fff437f6c0aa556cf77d43b9e783529/swyjo.Learn.FullStack.Vue..NET.Core.PostgreSQL.Web.Development.72020.part2.rar.html
https://rapidgator.net/file/e06bd1c6c6da36515e30bc720b250030/swyjo.Learn.FullStack.Vue..NET.Core.PostgreSQL.Web.Development.72020.part3.rar.html
https://rapidgator.net/file/df1f01e711043039421c43db027c7068/swyjo.Learn.FullStack.Vue..NET.Core.PostgreSQL.Web.Development.72020.part4.rar.html
https://rapidgator.net/file/cc7cfa2685a7e0e561c7e6dffab6f520/swyjo.Learn.FullStack.Vue..NET.Core.PostgreSQL.Web.Development.72020.part5.rar.html
https://rapidgator.net/file/8dc738c7219b8273e5cd44b0915b5567/swyjo.Learn.FullStack.Vue..NET.Core.PostgreSQL.Web.Development.72020.part6.rar.html

nitroflare_com:
https://nitroflare.com/view/A583F3CE67AB384/swyjo.Learn.FullStack.Vue..NET.Core.PostgreSQL.Web.Development.72020.part1.rar
https://nitroflare.com/view/30C3D3DDEB6D08E/swyjo.Learn.FullStack.Vue..NET.Core.PostgreSQL.Web.Development.72020.part2.rar
https://nitroflare.com/view/EE18295232E7A97/swyjo.Learn.FullStack.Vue..NET.Core.PostgreSQL.Web.Development.72020.part3.rar
https://nitroflare.com/view/FA88D123597CB70/swyjo.Learn.FullStack.Vue..NET.Core.PostgreSQL.Web.Development.72020.part4.rar
https://nitroflare.com/view/92121CE44B79456/swyjo.Learn.FullStack.Vue..NET.Core.PostgreSQL.Web.Development.72020.part5.rar
https://nitroflare.com/view/11D9F9D6A24C1E7/swyjo.Learn.FullStack.Vue..NET.Core.PostgreSQL.Web.Development.72020.part6.rar

uploadgig_com:
http://uploadgig.com/file/download/83861778D8Df3125/swyjo.Learn.FullStack.Vue..NET.Core.PostgreSQL.Web.Development.72020.part1.rar
http://uploadgig.com/file/download/e35a0dc2797a08e6/swyjo.Learn.FullStack.Vue..NET.Core.PostgreSQL.Web.Development.72020.part2.rar
http://uploadgig.com/file/download/35558a9A32dD10c1/swyjo.Learn.FullStack.Vue..NET.Core.PostgreSQL.Web.Development.72020.part3.rar
http://uploadgig.com/file/download/B1e7217Ec5Fbf14c/swyjo.Learn.FullStack.Vue..NET.Core.PostgreSQL.Web.Development.72020.part4.rar
http://uploadgig.com/file/download/33403Ecf8d8b0640/swyjo.Learn.FullStack.Vue..NET.Core.PostgreSQL.Web.Development.72020.part5.rar
http://uploadgig.com/file/download/Aa44112f6fF1ec5d/swyjo.Learn.FullStack.Vue..NET.Core.PostgreSQL.Web.Development.72020.part6.rar


Links are Interchangeable - No Password - Single Extraction


Related News

Comments (0)

Add Comments

Name:*
E-Mail:
Contents:
Security Code: *
reload, if the code cannot be seen

Search



Calendar


«    August 2020    »
MonTueWedThuFriSatSun
 12
3456789
10111213141516
17181920212223
24252627282930
31 


Suport


UploadGIG.com