Login: Password:  Do not remember me




Tags






Video TutorialsExact Trading - Price Action Forex Traders



Exact Trading - Price Action Forex  Traders

Exact Trading - Price Action Forex Traders
WEBRip | English | MP4 | 856 x 480 | AVC ~360 Kbps | 30 fps
AAC | 92 Kbps | 44.1 KHz | 2 channels | 20 hours | 4.24 GB
Genre: eLearning Video / Forex, Trading, Stock

Price Action Trading Just Like The Banks No Guessing, No Predicting, No Crazy Lagging Indicators JUST PRICE!! After months in the making, I am extremely proud to present 'FOREX UNCENSORED' my 'In Depth Price Action Forex Course', with over twenty seven modules of videos explaining Price Action Forex Trading, which includes six amazing bonuses, designed to give you an in depth understanding of Forex.

Follow along with me as I take you on the inside and give you the banks trading techniques.

BECOME PART OF THE EXACT TRADING COMMUNITY
And finally take charge of your trading as your mentor Paul Langham shows you how the banks trade and how to trade with them.

BEING ONE OF THE WORLDS LEADING PRICE ACTION EXPERTS LETS TAKE A LOOK AT SOME RECENT PUBLICATIONS
Stocks and Commodities Magazine - PRICE ACTION and MOMENTUM TRADING

FOREX TRADING TAUGHT AND EXPLAINED BY A BANK PROFESSIONAL

I am so confident that you'll enjoy the bank trading techniques I have learned during my thirty year banking career, I would like to share a couple of them with you now.

General
Complete name : 11. Trend Trading Take Profits (Part 2).mp4
Format : MPEG-4
Format profile : Base Media
Codec ID : isom (isom/iso2/avc1/mp41)
File size : 97.1 MiB
Duration : 29 min 41 s
Overall bit rate mode : Variable
Overall bit rate : 457 kb/s
Encoded date : UTC 2019-09-25 19:32:16
Tagged date : UTC 2019-09-25 19:32:16
Writing application : Lavf51.12.1

Video
ID : 1
Format : AVC
Format/Info : Advanced Video Codec
Format profile : [email protected]
Format settings : CABAC / 1 Ref Frames
Format settings, CABAC : Yes
Format settings, RefFrames : 1 frame
Format settings, GOP : M=1, N=12
Codec ID : avc1
Codec ID/Info : Advanced Video Coding
Duration : 29 min 41 s
Bit rate mode : Variable
Bit rate : 360 kb/s
Width : 856 pixels
Height : 480 pixels
Display aspect ratio : 16:9
Frame rate mode : Constant
Frame rate : 30.000 FPS
Color space : RGB
Chroma subsampling : 4:2:0
Bit depth : 8 bits
Scan type : Progressive
Bits/(Pixel*Frame) : 0.029
Stream size : 76.5 MiB (79%)
Language : English
Encoded date : UTC 2019-09-25 19:32:16
Tagged date : UTC 2019-09-25 19:32:16
Color range : Limited
Matrix coefficients : Identity

Audio
ID : 2
Format : AAC
Format/Info : Advanced Audio Codec
Format profile : LC
Codec ID : mp4a-40-2
Duration : 29 min 41 s
Bit rate mode : Variable
Bit rate : 92.0 kb/s
Channel(s) : 2 channels
Channel positions : Front: L R
Sampling rate : 44.1 kHz
Frame rate : 43.066 FPS (1024 SPF)
Compression mode : Lossy
Stream size : 19.5 MiB (20%)
Language : English
Encoded date : UTC 2019-09-25 19:32:16
Tagged date : UTC 2019-09-25 19:32:16

Screenshots









Download link:

rapidgator_net:
https://rapidgator.net/file/681d9d3aaf8499c24a96dd0396295600/uuqrr.Exact.Trading..Price.Action.Forex.Traders.part01.rar.html
https://rapidgator.net/file/f190822b87241202bff3000974727719/uuqrr.Exact.Trading..Price.Action.Forex.Traders.part02.rar.html
https://rapidgator.net/file/20584d1dc6156d219933bc6a8aceab6b/uuqrr.Exact.Trading..Price.Action.Forex.Traders.part03.rar.html
https://rapidgator.net/file/4bde415b0e7c7294ab091e742ec154a2/uuqrr.Exact.Trading..Price.Action.Forex.Traders.part04.rar.html
https://rapidgator.net/file/c684d0cb1e6950f8c41d682fba19ac8e/uuqrr.Exact.Trading..Price.Action.Forex.Traders.part05.rar.html
https://rapidgator.net/file/eb3d2266c1c8c8f30d9d7b96c1305949/uuqrr.Exact.Trading..Price.Action.Forex.Traders.part06.rar.html
https://rapidgator.net/file/51fd75d4b32d3ef86337dc329905b75d/uuqrr.Exact.Trading..Price.Action.Forex.Traders.part07.rar.html
https://rapidgator.net/file/7ebcc81d07cbf6294a79d07b7b623810/uuqrr.Exact.Trading..Price.Action.Forex.Traders.part08.rar.html
https://rapidgator.net/file/4ba61d552bb3f60a93a382ee0dc3c685/uuqrr.Exact.Trading..Price.Action.Forex.Traders.part09.rar.html

nitroflare_com:
https://nitroflare.com/view/C215095F95A5C4B/uuqrr.Exact.Trading..Price.Action.Forex.Traders.part01.rar
https://nitroflare.com/view/028631972636C65/uuqrr.Exact.Trading..Price.Action.Forex.Traders.part02.rar
https://nitroflare.com/view/77683D97C007A0F/uuqrr.Exact.Trading..Price.Action.Forex.Traders.part03.rar
https://nitroflare.com/view/796A7F09548904F/uuqrr.Exact.Trading..Price.Action.Forex.Traders.part04.rar
https://nitroflare.com/view/C777B5C8BF442E8/uuqrr.Exact.Trading..Price.Action.Forex.Traders.part05.rar
https://nitroflare.com/view/DB4B8BB08EF91A6/uuqrr.Exact.Trading..Price.Action.Forex.Traders.part06.rar
https://nitroflare.com/view/D4CC82AEE2E021D/uuqrr.Exact.Trading..Price.Action.Forex.Traders.part07.rar
https://nitroflare.com/view/88A6AA409346E44/uuqrr.Exact.Trading..Price.Action.Forex.Traders.part08.rar
https://nitroflare.com/view/E3E1F1D3934006B/uuqrr.Exact.Trading..Price.Action.Forex.Traders.part09.rar

uploadgig_com:
https://uploadgig.com/file/download/43a4cf6944537903/uuqrr.Exact.Trading..Price.Action.Forex.Traders.part01.rar
https://uploadgig.com/file/download/5E986b1e542df668/uuqrr.Exact.Trading..Price.Action.Forex.Traders.part02.rar
https://uploadgig.com/file/download/3082bd4Ee0D667E7/uuqrr.Exact.Trading..Price.Action.Forex.Traders.part03.rar
https://uploadgig.com/file/download/7aB3badE6c141335/uuqrr.Exact.Trading..Price.Action.Forex.Traders.part04.rar
https://uploadgig.com/file/download/c5989A49adA7d565/uuqrr.Exact.Trading..Price.Action.Forex.Traders.part05.rar
https://uploadgig.com/file/download/5e06459E43Ee07A0/uuqrr.Exact.Trading..Price.Action.Forex.Traders.part06.rar
https://uploadgig.com/file/download/31Adb28d3d712093/uuqrr.Exact.Trading..Price.Action.Forex.Traders.part07.rar
https://uploadgig.com/file/download/6Bec5fE624a341ee/uuqrr.Exact.Trading..Price.Action.Forex.Traders.part08.rar
https://uploadgig.com/file/download/c574e36Ee0ee064B/uuqrr.Exact.Trading..Price.Action.Forex.Traders.part09.rar


Links are Interchangeable - No Password - Single Extraction


Related News

Comments (0)

Add Comments

Name:*
E-Mail:
Contents:
Security Code: *
reload, if the code cannot be seen

Search



Calendar


«    February 2021    »
MonTueWedThuFriSatSun
1234567
891011121314
15161718192021
22232425262728


Suport


UploadGIG.com